Sherif.fais.moi.peur.LE.COMMENCEMENT.DvdRip.FRENCH.avi URL Raccourcie

Télécharger "Sherif.fais.moi.peur.LE.COMMENCEMENT.DvdRip.FRENCH.avi" en illimité a une vitesse de 1000 kbps grïâce aux 14 Jours d'essai gratuit offerts par Usenet.nl!

Sherif fais-moi peur - Le Commencement
The Dukes of Hazzard - The Beginning










Titre original : The Dukes of Hazzard - The Beginning
Origine du film : Americain
Réalisateur : Robert Berlinger
Acteurs :
Jonathan Bennett : Bo Duke
Randy Wayne : Luke Duke
April Scott : Daisy Duke
Joel Moore : Cooter Davenport

Genre : Comédie, Action, Aventure
Durée : 1h 35m 28s
Dates de sortie DVD: : 2007 USA - 2008 France


SYNOPSIS DU FILM

Naissance d'une légende ou Shérif, fais-moi peur : Là où tout a commencé au Québec (The Dukes of Hazzard: The Beginning) est un téléfilm américain de Robert Berlinger, diffusé pour la première fois le 4 mars 2007 sur ABC Family et le 3 septembre 2012 sur NT1 en France . C'est une préquelle au film Shérif, fais-moi peur sorti en 2005, lui-même basé sur la série télévisée du même nom.

Shérif, fais-moi peur (The Dukes of Hazzard) est une série télévisée américaine en 147 épisodes de 50 minutes, créée par Gy Waldron et diffusée entre le 14 septembre 1979 et le 8 février 1985 sur le réseau CBS.

En France, la série a été diffusée à partir du 18 septembre 1980 sur Antenne 2, puis sur La Cinq à partir du 7 septembre 1986, qui rediffuse la série et programme la suite inédite. Rediffusion sur NRJ12 en 2008 et sur Virgin 17 du 15 mars au 8 juin 2010.


Les adolescents et cousins Bo et Luke Duke passent leurs premières vacances dans le comté de Hazzard dans la ferme de leur oncle Jesse qui fait de l'alcool en toute illégalité...



INFOS  SUR  L'UPLOAD

Qualité : DVDrip
Format : Xvid
Langue :
Sous-titre : Aucun
Bitrate Audio : 128 Kbps
Bitrate Video : 910 Kbps

Nom de la Release :Sherif.fais.moi.peur.LE.COMMENCEMENT.DvdRip.FRENCH.avi

Nombre et taille des fichiers : 1x717 + 1x1.63 MB

Total du post :  718.63 MB










↓↓↓ Sherif.fais.moi.peur.LE.COMMENCEMENT.DvdRip.FRENCH.avi ↓↓↓
 

www.usenet.nl

Seeders 16 Leechers 0 Téléchargements 1404
 
Télécharger Dire merci! Signaler
Voir la liste des membres qui vous remercient
↑↑↑ Sherif.fais.moi.peur.LE.COMMENCEMENT.DvdRip.FRENCH.avi ↑↑↑

Informations

Nom Sherif.fais.moi.peur.LE.COMMENCEMENT.DvdRip.FRENCH.avi
Torrent Sherif.fais.moi.peur.Le.Commencement.FR.avi.torrent
Catégorie Film
Taille totale 718.7 MB
Info Hash 1696c5fcecebee01be93d1f255c9ec2f38abc01e
Uploadé par Anonymous
Uploadé le 2012-12-09 11:32:17 (+00:00)
Visites 2071
évaluation 4.9/5 (28 votes)

Liste des Fichiers

Path Size
Sherif.fais.moi.peur.Le.Commencement.FR.avi/Sherif.fais.moi.peur.Le.Commencement.FR.avi.avi 717.06 MB
Sherif.fais.moi.peur.Le.Commencement.FR.avi/Sherif.fais.moi.peur.Le.Commencement.FR.nfo 3.12 KB
Sherif.fais.moi.peur.Le.Commencement.FR.avi/disc.jpg 1.63 MB

Voir le NFO

General
Complete name                            : F:\Sherif.fais.moi.peur.Le.Commencement.FR.avi\disc.jpg
Format                                   : JPEG
File size                                : 1.63 MiB

Image
Format                                   : JPEG
Width                                    : 1 444 pixels
Height                                   : 1 449 pixels
Color space                              : YUV
Chroma subsampling                       : 4:4:4
Bit depth                                : 8 bits
Compression mode                         : Lossy
Stream size                              : 1.63 MiB (100%)

General
Complete name                            : F:\Sherif.fais.moi.peur.Le.Commencement.FR.avi\Sherif.fais.moi.peur.Le.Commencement.FR.avi.avi
Format                                   : AVI
Format/Info                              : Audio Video Interleave
File size                                : 717 MiB
Duration                                 : 1h 35mn
Overall bit rate                         : 1 050 Kbps
Writing application                      : Lavf54.36.100

Video
ID                                       : 0
Format                                   : MPEG-4 Visual
Format profile                           : Simple@L3
Format settings, BVOP                    : No
Format settings, QPel                    : No
Format settings, GMC                     : No warppoints
Format settings, Matrix                  : Default (H.263)
Codec ID                                 : XVID
Codec ID/Hint                            : XviD
Duration                                 : 1h 35mn
Bit rate                                 : 910 Kbps
Width                                    : 512 pixels
Height                                   : 384 pixels
Display aspect ratio                     : 4:3
Frame rate                               : 23.976 fps
Color space                              : YUV
Chroma subsampling                       : 4:2:0
Bit depth                                : 8 bits
Scan type                                : Progressive
Compression mode                         : Lossy
Bits/(Pixel*Frame)                       : 0.193
Stream size                              : 621 MiB (87%)
Writing library                          : XviD 64

Audio
ID                                       : 1
Format                                   : MPEG Audio
Format version                           : Version 1
Format profile                           : Layer 3
Codec ID                                 : 55
Codec ID/Hint                            : MP3
Duration                                 : 1h 35mn
Bit rate mode                            : Constant
Bit rate                                 : 128 Kbps
Channel(s)                               : 2 channels
Sampling rate                            : 44.1 KHz
Compression mode                         : Lossy
Stream size                              : 87.4 MiB (12%)
Alignment                                : Aligned on interleaves
Interleave, duration                     : 26 ms (0.63 video frame)
Interleave, preload duration             : 26 ms
Writing library                          : LAME3.99.5

TÉLÉCHARGER "Sherif.fais.moi.peur.LE.COMMENCEMENT.DvdRip.FRENCH.avi" 20x PLUS VITE AVEC USENET
Anonyme&Rapide – 14 jours gratuits

Ajouter un commentaire

MysterOni ↑ 1.02 TB ↓ 233.79 GB Ratio: 4,45

pas de sous titrage ?

lolo0022 ↑ 409.89 GB ↓ 545.34 GB Ratio: 0,75

merci

PHS911 ↑ 151.45 GB ↓ 48.73 GB Ratio: 3,10

Merci pour le partage

gerard35000 ↑ 891.76 GB ↓ 693.78 GB Ratio: 1,28

Merci beaucoup

lazybum

Merci beaucoup, team pending. Je pense que je devrais faire plus d'attention aux petits details d'UL.

leloupnoir Peu présent pour le moment!

Correction Team Pending: L'erreur suivante a été rectifié par un membre de la Team Pending : "Options ton nfo indique du ntsc qui lui même indique une vfq et non une truefrench" Lors de ton prochain upload, merci de bien vouloir faire attention au règles d'upload

Dernière édition par leloupnoir le 2012-12-09 20:19:27

lazybum

PREZ mauvais ? Pourquoi ? Tu fais mieux ? Si oui, avec un lien de tes uploads, stp, merci.

PHS911 ↑ 151.45 GB ↓ 48.73 GB Ratio: 3,10

Merci beaucoup

Télécharger "Sherif.fais.moi.peur.LE.COMMENCEMENT.DvdRip.FRENCH.avi" en illimité a une vitesse de 1000 kbps grïâce aux 14 Jours d'essai gratuit offerts par Usenet.nl!
 
Loading...