SODA INTEGRALE SAISON 1 DVD1 URL Raccourcie

Télécharger "SODA INTEGRALE SAISON 1 DVD1" en illimité a une vitesse de 1000 kbps grïâce aux 14 Jours d'essai gratuit offerts par Usenet.nl!
(¯`·._.·[  SODA Integrale Saison 1  ]·._.·´¯





Titre original : Soda
Réalisateur : Jean-Michel Ben Soussan, Nath Dumont
Acteurs : Kev Adams, Guy Lecluyse, Laurence Oltuski, William Lebghil, Gaël Cottat
Genre : Série télé, Comédie



Fils aîné d’une famille de classe moyenne et martyrisé par sa petite soeur, la démoniaque Eve, Adam, lycéen de 18 ans, est comme la majorité des ados, un glandeur professionnel dont le principal passe-temps est de se laisser vivre. Grande gueule et frimeur devant ses potes et sa famille, il l’est beaucoup moins devant Jenna, la bombe du lycée avec laquelle il veut sortir... Face à ses angoisses et ses rêves d’ado, il doit affronter son plus grand défi : le monde des adultes... et les meufs




Qualité : DVDRiP
Format : XviD
Langue : Français
Nombre de fichiers : 1
Taille totale : 700 Mo



Mot de pass : Aucun

Total du post: 700 Mo



↓↓↓ SODA INTEGRALE SAISON 1 DVD1 ↓↓↓
 

www.usenet.nl

Seeders 50 Leechers 0 Téléchargements 13329
 
Télécharger Dire merci! Signaler
Voir la liste des membres qui vous remercient
↑↑↑ SODA INTEGRALE SAISON 1 DVD1 ↑↑↑

Informations

Nom SODA INTEGRALE SAISON 1 DVD1
Torrent soda_dvd1.avi.torrent
Catégorie Série TV
Taille totale 697.72 MB
Info Hash 40ec816a06fcd77215dbffb3003882413c4a5bf1
Uploadé par sergentcbea
Uploadé le 2012-05-21 07:03:32 (+00:00)
Visites 17626
évaluation 4.9/5 (132 votes)

Liste des Fichiers

Path Size
soda_dvd1.avi 697.72 MB

Voir le NFO

===============================================================================
Titre:    SODA Intégrale Saison 1 DVD1 [DVDRIP-XVID-MP3]
Tags:     [DVDRIP][XVID][MP3]
Fichiers: "SODA_DVD1.avi"
===============================================================================
General
-------------------------------------------------------------------------------
Complete name                    : SODA\Saison 2\SODA 1A.avi
Format                           : AVI
Format/Info                      : Audio Video Interleave
File size                        : 700 MB
Duration                         : 2H56mn
Overall bit rate                 : 1123 Kbps
-------------------------------------------------------------------------------
Video
-------------------------------------------------------------------------------
ID                               : 0
Format                           : MPEG-4 Visual
Format profile                   : Advanced Simple@L5
Format settings, BVOP            : Yes
Format settings, QPel            : No
Format settings, GMC             : No warppoints
Format settings, Matrix          : Default (H.263)
Codec ID                         : XVID
Codec ID/Hint                    : XviD
Duration                         : 2H56mn
Bit rate                         : 995 Kbps
Width                            : 640 pixels
Height                           : 360 pixels
Display aspect ratio             : 16:9
Frame rate                       : 25.000 fps
Color space                      : YUV
Chroma subsampling               : 4:2:0
Bit depth                        : 8 bits
Scan type                        : Progressive
Bits/(Pixel*Frame)               : 0.173
Stream size                      : 372 MiB (26%)
Writing library                  : XviD 1.2.1 (UTC 2008-12-04)
-------------------------------------------------------------------------------
Audio
-------------------------------------------------------------------------------
ID                               : 1
Format                           : MPEG Audio
Format version                   : Version 1
Format profile                   : Layer 3
Mode                             : Joint stereo
Mode extension                   : MS Stereo
Codec ID                         : 55
Codec ID/Hint                    : MP3
Duration                         : 2H56mn
Bit rate mode                    : Constant
Bit rate                         : 128 Kbps
Channel(s)                       : 2 channels
Sampling rate                    : 48.0 KHz
Stream size                      : 42.8 MiB (3%)
Alignment                        : Aligned on interleaves
Interleave, duration             : 27 ms (0.67 video frame)
===============================================================================

TÉLÉCHARGER "SODA INTEGRALE SAISON 1 DVD1" 20x PLUS VITE AVEC USENET
Anonyme&Rapide – 14 jours gratuits

Ajouter un commentaire

1 - 20 | 21 - 33
robert75 ↑ 397.1 GB ↓ 183.09 GB Ratio: 2,16

pfouu 3h de video compresse en moins de 700mo, resultat qualite d'image à chier..

beybey27 ↑ 78.36 GB ↓ 104.92 GB Ratio: 0,74

un grand merci pour ce post

felinefranco Féline ↑ 145.7 GB ↓ 140.3 GB Ratio: 1,03

Merci pour le post ! les gamins vont etre aux anges

antoiine95340 ↑ 30.01 GB ↓ 7.17 GB Ratio: 4,18

C'est bien vivement la suite

fabyshrelie ↑ 708.87 GB ↓ 814.37 GB Ratio: 0,87

pourquoi t'es rageux hervé, oui c'est naze, comme 99 % des programmes TV, personne ne t'oblige à regarder, tu n'as qu'à zapper ou télécharger des trucs intelligents... ma femme regarde des trucs de la vraie vie, des trucs intelligents, mais qu'est ce que je me fait chier devant
slim est terrible dans soda, de la balle

yoop ↑ 60.09 GB ↓ 75.01 GB Ratio: 0,80

great thxalot

herve14500 ↑ 255.12 GB ↓ 311.81 GB Ratio: 0,81

Mais que font les producteurs???? Ils font du fric avec des gens aussi nuls que ça je ne comprendrais jamais le déshonneur français pour cette série débile sans aucun sens. Comment les filles peuvent aimer ça...

TofTofTof ↑ 725.9 GB ↓ 968.13 GB Ratio: 0,74

Bonjour,trop cool merci

ulysse3333 ↑ 392.01 GB ↓ 327.11 GB Ratio: 1,19

super serie, dommage pour la qualité, merci quand même!

titine95 ↑ 3.55 TB ↓ 4.72 TB Ratio: 0,75

merci pour ce partage ces cool

binou55840 ↑ 2.83 TB ↓ 2.04 TB Ratio: 1,38

Merci beaucoup

aquarelle71 ↑ 710.77 GB ↓ 67 GB Ratio: 10,60

merci et joyeux noel =)

Spiro74 ↑ 371.31 GB ↓ 59.29 GB Ratio: 6,26

Merci ! j'adore cette série

Artslequin ↑ 3.94 TB ↓ 4.08 TB Ratio: 0,96

merci

mehdi24600 Respect = Seed ↑ 347.5 GB ↓ 427.29 GB Ratio: 0,81

Merci par contre qualité image degueulasse et qualité son médiocre.. Mais merci.

MacBook Pro 13 pouces i5 fin 2011 v. Lion

Dibidule ↑ 214.11 GB ↓ 249.96 GB Ratio: 0,85

Merci beaucoup!!!!!!

Amarelys ↑ 37.25 GB ↓ 35.3 GB Ratio: 1,05

Je trouve que c'est une qualité normale, certes pas du HD mais bon... En tout cas merci du partage !

cinemovie77 ↑ 1.03 TB ↓ 467.86 GB Ratio: 2,24

Super cette serie, la qualite video est moyenne certains épisodes sont doublés, mais on passe un bon moment, Merci

beaver Evil Genius ↑ 82.85 TB ↓ 3.56 TB Ratio: 23,28

mehdy09 ↑ 383.11 GB ↓ 387.45 GB Ratio: 0,98

trop cool cette serie vivement la saison 2

1 - 20 | 21 - 33
Télécharger "SODA INTEGRALE SAISON 1 DVD1" en illimité a une vitesse de 1000 kbps grïâce aux 14 Jours d'essai gratuit offerts par Usenet.nl!
 
Loading...