The.Avengers.2012.FRENCH.Xvid-Faery URL Raccourcie

Télécharger "The.Avengers.2012.FRENCH.Xvid-Faery" en illimité a une vitesse de 1000 kbps grïâce aux 14 Jours d'essai gratuit offerts par Usenet.nl!


[ Avengers ]







Origine du film : Américain
Distributeur : The Walt Disney Company France
Réalisateur : Joss Whedon
Acteurs : Robert Downey Jr., Chris Evans, Mark Ruffalo
Genre : Action, Aventure, Science fiction
Durée : 2h 22 min
Date de sortie : 25 avril 2012
Année de production : 2012
Critiques spectateurs : 4,5
Critiques presse : 4,0

Bande annonce : Voir la bande-annonce



Lorsque Nick Fury, le directeur du S.H.I.E.L.D., l'organisation qui préserve la paix au plan mondial, cherche à former une équipe de choc pour empêcher la destruction du monde, Iron Man, Hulk, Thor, Captain America, Hawkeye et Black Widow répondent présents.Les Avengers ont beau constituer la plus fantastique des équipes, il leur reste encore à apprendre à travailler ensemble, et non les uns contre les autres, d'autant que le redoutable Loki a réussi à accéder au Cube Cosmique et à son pouvoir illimité...



Qualité : DVDRiP
Format : XviD
Langue :
Sous-titre : Aucun
Bitrate Audio : 128 Kbps
Bitrate Video : 779 Kbps

Nom de la Release : The.Avengers.2012.FRENCH.Xvid-Faery

Nombre et taille des fichiers : 1 X 899 Mo

Total du post : 899 Mo







↓↓↓ The.Avengers.2012.FRENCH.Xvid-Faery ↓↓↓
 

www.usenet.nl

Seeders 444 Leechers 1 Téléchargements 224098
 
Télécharger Dire merci! Signaler
Voir la liste des membres qui vous remercient
↑↑↑ The.Avengers.2012.FRENCH.Xvid-Faery ↑↑↑

Informations

Nom The.Avengers.2012.FRENCH.Xvid-Faery
Torrent The.Avengers.2012.FRENCH.Xvid-Faery.torrent
Catégorie Film
Taille totale 899.16 MB
Info Hash 2d5eebbc13bc79ac8fdc2301d48373e517af5662
Uploadé par JohnDoe
Uploadé le 2012-08-28 22:13:43 (+00:00)
Visites 296410
évaluation 4.9/5 (1751 votes)

Liste des Fichiers

Path Size
The.Avengers.2012.FRENCH.Xvid-Faery/The.Avengers.2012.FRENCH.Xvid-Faery.avi 899.16 MB
The.Avengers.2012.FRENCH.Xvid-Faery/The.Avengers.2012.FRENCH.Xvid-Faery.nfo 2.95 KB

Voir le NFO

General
Complete name                            : C:\Users\windows 7 integrale\Desktop\The.Avengers.2012.FRENCH.Xvid-Faery\The.Avengers.2012.FRENCH.Xvid-Faery.avi
Format                                   : AVI
Format/Info                              : Audio Video Interleave
File size                                : 899 MiB
Duration                                 : 2h 17mn
Overall bit rate                         : 917 Kbps
Writing application                      : FairUse Wizard - http://fairusewizard.com
Writing library                          : The best and REALLY easy backup tool

Video
ID                                       : 0
Format                                   : MPEG-4 Visual
Format profile                           : Advanced Simple@L5
Format settings, BVOP                    : 1
Format settings, QPel                    : No
Format settings, GMC                     : No warppoints
Format settings, Matrix                  : Default (MPEG)
Muxing mode                              : Packed bitstream
Codec ID                                 : XVID
Codec ID/Hint                            : XviD
Duration                                 : 2h 17mn
Bit rate                                 : 779 Kbps
Width                                    : 640 pixels
Height                                   : 352 pixels
Display aspect ratio                     : 16:9
Frame rate                               : 25.000 fps
Color space                              : YUV
Chroma subsampling                       : 4:2:0
Bit depth                                : 8 bits
Scan type                                : Progressive
Compression mode                         : Lossy
Bits/(Pixel*Frame)                       : 0.138
Stream size                              : 764 MiB (85%)
Writing library                          : XviD 1.2.1 (UTC 2008-12-04)

Audio
ID                                       : 1
Format                                   : MPEG Audio
Format version                           : Version 1
Format profile                           : Layer 3
Mode                                     : Joint stereo
Mode extension                           : MS Stereo
Codec ID                                 : 55
Codec ID/Hint                            : MP3
Duration                                 : 2h 17mn
Bit rate mode                            : Constant
Bit rate                                 : 128 Kbps
Channel(s)                               : 2 channels
Sampling rate                            : 48.0 KHz
Compression mode                         : Lossy
Stream size                              : 125 MiB (14%)
Alignment                                : Aligned on interleaves
Interleave, duration                     : 40 ms (1.00 video frame)
Interleave, preload duration             : 504 ms
Writing library                          : LAME3.97 
Encoding settings                        : -m j -V 4 -q 2 -lowpass 17 -b 128

TÉLÉCHARGER "The.Avengers.2012.FRENCH.Xvid-Faery" 20x PLUS VITE AVEC USENET
Anonyme&Rapide – 14 jours gratuits

Ajouter un commentaire

1 - 20 | 21 - 40 | 41 - 60 | ... | 701 - 720 | 721 - 740 | 741 - 753
copland59 ↑ 5.91 TB ↓ 3.64 TB Ratio: 1,62

Salut une petite question.
Comment ce fichier peut il être suivi par Hadopi alors qu'il faut s'enregistrer pour seeder ???

legrosbidon

VISé PAR HADOPI

Goss ↑ 92.87 GB ↓ 89.23 GB Ratio: 1,04

Le film est bon, impressionné par Hulk.

Qualité audiovisuelle : 9/10
Note personnelle du film : 8/10

svalbards ↑ 384.85 GB ↓ 414.58 GB Ratio: 0,92

AVERTISSEMENT HADOPI

svalbards ↑ 384.85 GB ↓ 414.58 GB Ratio: 0,92

Bonjour

ATTENTION!!!!! Je confirme qu'il s'agit bien d'un fichier leurre HADOPI
Mail d'avertissement dans la foulée.

Enna29 ↑ 598.2 GB ↓ 694.41 GB Ratio: 0,86

Avertissement hadopi pour ce fichier

jon08 ↑ 1.16 TB ↓ 983.96 GB Ratio: 1,20

merci beaucoup

Pour ceux qui voudraient un extrait du film:

http://www.extrait-culte.fr/avengers-extrait-n3

perlesderosee ↑ 75.86 GB ↓ 101.51 GB Ratio: 0,74

merci beaucoup

nicola ↑ 599.69 GB ↓ 215.71 GB Ratio: 2,78

merci je suis content de revoir ce film

baktaran ↑ 279 GB ↓ 372.31 GB Ratio: 0,74

Passez par la case VPN les gars

Shum ↑ 2.16 TB ↓ 571.4 GB Ratio: 3,86

Confirmation Hadopi, fichier signalé aux Admin pour suppression

guyll ↑ 551.43 GB ↓ 400.81 GB Ratio: 1,37

Merci pour le partage

EMKA55 ↑ 30.53 GB ↓ 41.04 GB Ratio: 0,74

Lol le mail Hadopi c'est un fake ?

stef038 ↑ 136.75 GB ↓ 165.2 GB Ratio: 0,82

je pense qu'il y a pas lieu de trembler pour un mail !!! Ils vont pas vous mettre en prison ...

Sittingfred ↑ 1.18 TB ↓ 710.77 GB Ratio: 1,70

Je vais le télécharger juste pour avoir le Mail Hadopi tellement j'en est rien a branler de leur lois xD

DarKsuN1337 ↑ 222.83 GB ↓ 198.75 GB Ratio: 1,12

Mail Hadopi reçu aussi à cause de ce fichier.

Merci aux uploaders

Eldariel ↑ 566.26 GB ↓ 726.53 GB Ratio: 0,77

Attention, j'ai reçu un mail Hadopi suite au téléchargement de ce film. Méfiez-vous

Zail01 ↑ 1.45 TB ↓ 790.51 GB Ratio: 1,87

mail hadopi reçu pour ce torrent... Attention

johnyjones ↑ 496.8 GB ↓ 415.04 GB Ratio: 1,19

fichier illisible

xalome8881 ↑ 30.09 GB ↓ 40.82 GB Ratio: 0,73

Et merci pour ce film

1 - 20 | 21 - 40 | 41 - 60 | ... | 701 - 720 | 721 - 740 | 741 - 753
Télécharger "The.Avengers.2012.FRENCH.Xvid-Faery" en illimité a une vitesse de 1000 kbps grïâce aux 14 Jours d'essai gratuit offerts par Usenet.nl!
 
Loading...