Thor Le Monde des ténèbres 720p x264 AC3 truefrench FR/ENG URL Raccourcie

Télécharger "Thor Le Monde des ténèbres 720p x264 AC3 truefrench FR/ENG" en illimité a une vitesse de 1000 kbps grïâce aux 14 Jours d'essai gratuit offerts par Usenet.nl!
Thor : Le Monde des ténèbres







Réalisateur :Alan Taylor
Acteurs :Chris Hemsworth, Natalie Portman, Tom Hiddleston
Durée :1h52min
Date de sortie :30 octobre 2013
Année de production :2013
Titre original :Thor: The Dark World
Critiques Spectateurs : 4
Critiques Presses : 2
Plus d'information sur allocine :http://www.allocine.fr/film/fichefilm_gen_cfilm=193108.html




Thor : Le Monde des ténèbres nous entraîne dans les nouvelles aventures de Thor, le puissant Avenger, qui lutte pour sauver la Terre et les neuf mondes d’un mystérieux ennemi qui convoite l’univers tout entier… Après les films Marvel Thor et Avengers, Thor se bat pour restaurer l’ordre dans le cosmos, mais une ancienne race, sous la conduite du terrible Malekith, un être assoiffé de vengeance, revient pour répandre les ténèbres. Confronté à un ennemi que même Odin et Asgard ne peuvent contrer, Thor doit s’engager dans son aventure la plus dangereuse et la plus personnelle, au cours de laquelle il va devoir s’allier au traître Loki pour sauver non seulement son peuple et ceux qui lui sont chers, mais aussi l’univers lui-même.





Qualité :Bluray 720p
Langue : Français, Anglais
Sous-titre :Français
Codec vidéo :AVC/H264 à 1 531kbps
Codec audio :AC3 à 640kbps




Nom de la release :Thor Le Monde des ténèbres 720p x264 AC3 truefrench Fr/eng




↓↓↓ Thor Le Monde des ténèbres 720p x264 AC3 truefrench FR/ENG ↓↓↓
 

www.usenet.nl

Seeders 107 Leechers 0 Téléchargements 2799
 
Télécharger Dire merci! Signaler
Voir la liste des membres qui vous remercient
↑↑↑ Thor Le Monde des ténèbres 720p x264 AC3 truefrench FR/ENG ↑↑↑

Informations

Nom Thor Le Monde des ténèbres 720p x264 AC3 truefrench FR/ENG
Torrent Thor Le Monde des ténèbres 720p x264 AC3 truefrench.torrent
Catégorie Film
Taille totale 2.25 GB
Info Hash 3bd21d86b2a2b4749e194ff10d77553fcf008e66
Uploadé par fauconie
Uploadé le 2014-02-23 23:02:13 (+00:00)
Visites 3907
évaluation 4.9/5 (19 votes)

Liste des Fichiers

Path Size
Thor Le Monde des ténèbres 720p x264 AC3 truefrench/Thor Le Monde des ténèbres 720p x264 AC3 truefrench.mkv 2.25 GB
Thor Le Monde des ténèbres 720p x264 AC3 truefrench/Thor Le Monde des ténèbres 720p x264 AC3 truefrench.srt 71.08 KB

Voir le NFO

 ■General

Complete name                            : Thor  Le Monde des ténèbres 720p x264 AC3 truefrench.mkv

Format                                   : Matroska

Format version                           : Version 2

File size                                : 2.25 GiB

Duration                                 : 1h 52mn

Overall bit rate                         : 2 869 Kbps

Writing library                          : libmkv 0.6.5



Video

ID                                       : 1

Format                                   : AVC

Format/Info                              : Advanced Video Codec

Format profile                           : Main@L4.0

Format settings, CABAC                   : Yes

Format settings, ReFrames                : 4 frames

Format settings, GOP                     : M=1, N=3

Codec ID                                 : V_MPEG4/ISO/AVC

Duration                                 : 1h 52mn

Bit rate                                 : 1 531 Kbps

Width                                    : 1 280 pixels

Height                                   : 534 pixels

Display aspect ratio                     : 2.40:1

Frame rate mode                          : Constant

Frame rate                               : 23.976 fps

Color space                              : YUV

Chroma subsampling                       : 4:2:0

Bit depth                                : 8 bits

Scan type                                : Progressive

Bits/(Pixel*Frame)                       : 0.093

Stream size                              : 1.20 GiB (53%)

Writing library                          : x264 core 130 r2273 b3065e6

Encoding settings                        : cabac=1 / ref=1 / deblock=1:0:0 / analyse=0x1:0x111 / me=hex / subme=2 / psy=1 / psy_rd=1.00:0.00 / mixed_ref=0 / me_range=16 / chroma_me=1 / trellis=0 / 8x8dct=0 / cqm=0 / deadzone=21,11 / fast_pskip=1 / chroma_qp_offset=0 / threads=6 / lookahead_threads=2 / sliced_threads=0 / nr=0 / decimate=1 / interlaced=0 / bluray_compat=0 / constrained_intra=0 / bframes=3 / b_pyramid=2 / b_adapt=1 / b_bias=0 / direct=1 / weightb=1 / open_gop=0 / weightp=1 / keyint=240 / keyint_min=24 / scenecut=40 / intra_refresh=0 / rc_lookahead=10 / rc=crf / mbtree=1 / crf=20.0 / qcomp=0.60 / qpmin=0 / qpmax=69 / qpstep=4 / vbv_maxrate=20000 / vbv_bufsize=25000 / crf_max=0.0 / nal_hrd=none / ip_ratio=1.40 / aq=1:1.00

Language                                 : English

Default                                  : Yes

Forced                                   : No

Color primaries                          : BT.709

Transfer characteristics                 : BT.709

Matrix coefficients                      : BT.709



Audio #1

ID                                       : 2

Format                                   : AC-3

Format/Info                              : Audio Coding 3

Format profile                           : Dolby Digital

Mode extension                           : CM (complete main)

Format settings, Endianness              : Big

Codec ID                                 : A_AC3

Duration                                 : 1h 52mn

Bit rate mode                            : Constant

Bit rate                                 : 640 Kbps

Channel count                            : 2 channels

Channel positions                        : Front: L R

Sampling rate                            : 48.0 KHz

Bit depth                                : 16 bits

Compression mode                         : Lossy

Stream size                              : 513 MiB (22%)

Language                                 : French

Default                                  : Yes

Forced                                   : No



Audio #2

ID                                       : 3

Format                                   : AC-3

Format/Info                              : Audio Coding 3

Format profile                           : Dolby Digital

Mode extension                           : CM (complete main)

Format settings, Endianness              : Big

Codec ID                                 : A_AC3

Duration                                 : 1h 52mn

Bit rate mode                            : Constant

Bit rate                                 : 640 Kbps

Channel count                            : 2 channels

Channel positions                        : Front: L R

Sampling rate                            : 48.0 KHz

Bit depth                                : 16 bits

Compression mode                         : Lossy

Stream size                              : 513 MiB (22%)

Language                                 : English

Default                                  : No

Forced                                   : No



Text

ID                                       : 4

Format                                   : UTF-8

Codec ID                                 : S_TEXT/UTF8

Codec ID/Info                            : UTF-8 Plain Text

Language                                 : French

Default                                  : No

Forced                                   : No



TÉLÉCHARGER "Thor Le Monde des ténèbres 720p x264 AC3 truefrench FR/ENG" 20x PLUS VITE AVEC USENET
Anonyme&Rapide – 14 jours gratuits

Ajouter un commentaire

angusfloyd ↑ 848.24 GB ↓ 725.19 GB Ratio: 1,16

merci bien cool

zittouxx ↑ 5.58 GB ↓ 4.51 GB Ratio: 1,23

merci

chintok50 ↑ 505.8 GB ↓ 137.18 GB Ratio: 3,68

merci pour le partage!!!!

captainbiceps ↑ 852.62 GB ↓ 786.81 GB Ratio: 1,08

Merci pour le partage

GeneralLee3 ↑ 681.58 GB ↓ 293.9 GB Ratio: 2,31

Tout est bon dans ce torrent, son/video/film. Merci!

math4451 ↑ 1.89 TB ↓ 1.67 TB Ratio: 1,12

Dommage qu'il n'y ai pas juste les sous-titres quand ce n'est pas en FR... Sinon super !

May the Force be with you.... Always

terminator155 ↑ 607.63 GB ↓ 434.54 GB Ratio: 1,39

Merci pour le partage

GeneralLee3 ↑ 681.58 GB ↓ 293.9 GB Ratio: 2,31

Son/Diveo impeccable ! Merci pour le travail réalisé.

jebv ↑ 252.29 GB ↓ 295.26 GB Ratio: 0,85

2 channels ce sont deux canaux pour la piste audio, comme des hauts-parleurs stéréo.
L'ac3 ou le dts transportent en général 6 (5.1) canaux ou plus et avec le taux que tu as utilisé (640 Kbps) le 5.1 passe sans problème.
Idéalement, les pistes son étant relativement légères comparées à la vidéo, on peut se permettre de dupliquer la piste son du support original, sans re-compression, je ne sais pas si ton logiciel le permet.

crysistof ↑ 2.24 TB ↓ 1.34 TB Ratio: 1,67

Merci pour le UP mais pourquoi ac3 2 channels, ça mérite du 5.1!!

claude2461 ↑ 363.97 GB ↓ 104.87 GB Ratio: 3,47

Le DVD et Blu ray était prévus pour le 24 Février 2014 sur amazone EU!!Bonsoir à tous!

claude2461 ↑ 363.97 GB ↓ 104.87 GB Ratio: 3,47

Très bon film!!! vidéo et son très bon 10/10 aucun problème!!Merci pour ce très bon Upload

ranaud33 ↑ 30.37 GB ↓ 8.5 GB Ratio: 3,57

bonsoir je n'arrive pas a lire le film.Si quelqu'un peut m'aider sa serai sympas.

kainovel02 ↑ 82.71 GB ↓ 13.94 GB Ratio: 5,93

très bon film

totoxxx57 ↑ 4.84 TB ↓ 3.23 TB Ratio: 1,50

AC-3 (2 channels)

wariuso Euh...tu l'as vu....

salut,
selon le lien allociné il ne sort que le mois prochain en DVD non ?
pas sur du coup que tu puisses le partager ici. pour le moment ++

Télécharger "Thor Le Monde des ténèbres 720p x264 AC3 truefrench FR/ENG" en illimité a une vitesse de 1000 kbps grïâce aux 14 Jours d'essai gratuit offerts par Usenet.nl!
 
Loading...