Titanic.La.veritable.histoire.2011.FRENCH.TVRip.XviD.MP3-Ninobello URL Raccourcie

Télécharger "Titanic.La.veritable.histoire.2011.FRENCH.TVRip.XviD.MP3-Ninobello" en illimité a une vitesse de 1000 kbps grïâce aux 14 Jours d'essai gratuit offerts par Usenet.nl!

Titanic : la véritable histoire





CATÉGORIE : Documentaire/Fiction

RÉALISATION : Richard Dale

ANNÉE : 2011

RÉSUMÉ : Retour sur l'histoire de la catastrophe du Titanic, à l'occasion de la commémoration du 100e anniversaire du naufrage. Au cours de cet événement tragique, 1517 personnes périrent. Peu de traces existent. Mais grâce aux témoignages récemment retrouvés des survivants, de nouvelles précisions sont révélées sur le déroulement du drame. Le courage des «gueules noires», les soutiers, est mis en avant. Elizabeth Dowdell, une jeune nurse, a pris tous les risques pour sauver une enfant. Quant au capitaine, ses hésitations ont précipité la tragédie. L'eau s'est, en effet, infiltrée à tous les niveaux du navire. Les effets spéciaux actuels permettent aussi de décrypter ce qui s'est précisément passé à l'intérieur du paquebot pendant le naufrage.

AVIS : Habile réalisateur, Richard Dale se passionne pour la fin des dinosaures comme la mission Apollo 11. Dans son dernier docu-fiction, le Britannique s'est attaché à reconstituer le naufrage du Titanic. Un regard à la fois poétique et précis, nourri par des animations en 3D plus vraies que nature.

DIFFUSION : France 4 le 1er janv. 2013, 14h35 (redif.)

TVRIP : XviD 640X360 MPEG-4 920 Kbps  MP3 128 Kbps  698 MiB  1h32'









↓↓↓ Titanic.La.veritable.histoire.2011.FRENCH.TVRip.XviD.MP3-Ninobello ↓↓↓
 

www.usenet.nl

Seeders 1 Leechers 0 Téléchargements 1212
 
Télécharger Dire merci! Signaler
Voir la liste des membres qui vous remercient
↑↑↑ Titanic.La.veritable.histoire.2011.FRENCH.TVRip.XviD.MP3-Ninobello ↑↑↑

Informations

Nom Titanic.La.veritable.histoire.2011.FRENCH.TVRip.XviD.MP3-Ninobello
Torrent Titanic.La.veritable.histoire.2011.FRENCH.TVRip.XviD.MP3-Ninobello.torrent
Catégorie Documentaire
Taille totale 697.84 MB
Info Hash af4a69b06fb39a032e9a03f9aa1ced9079053559
Uploadé par alca06
Uploadé le 2013-01-01 21:01:29 (+00:00)
Visites 1457
évaluation 4.7/5 (41 votes)

Liste des Fichiers

Path Size
Titanic.La.veritable.histoire.2011.FRENCH.TVRip.XviD.MP3-Ninobello/Titanic.La.veritable.histoire.2011.FRENCH.TVRip.XviD.MP3-Ninobello.avi 697.84 MB
Titanic.La.veritable.histoire.2011.FRENCH.TVRip.XviD.MP3-Ninobello/Titanic.La.veritable.histoire.2011.FRENCH.TVRip.XviD.MP3-Ninobello.nfo 2.39 KB

Voir le NFO

General
Complete name                            : Titanic.La.veritable.histoire.2011.FRENCH.TVRip.XviD.MP3-Ninobello.avi
Format                                   : AVI
Format/Info                              : Audio Video Interleave
File size                                : 698 MiB
Duration                                 : 1h 31mn
Overall bit rate                         : 1 061 Kbps

Video
ID                                       : 0
Format                                   : MPEG-4 Visual
Format profile                           : Advanced Simple@L5
Format settings, BVOP                    : 2
Format settings, QPel                    : Yes
Format settings, GMC                     : 3 warppoints
Format settings, Matrix                  : Default (MPEG)
Codec ID                                 : XVID
Codec ID/Hint                            : XviD
Duration                                 : 1h 31mn
Bit rate                                 : 920 Kbps
Width                                    : 640 pixels
Height                                   : 360 pixels
Display aspect ratio                     : 16:9
Frame rate                               : 25.000 fps
Color space                              : YUV
Chroma subsampling                       : 4:2:0
Bit depth                                : 8 bits
Scan type                                : Progressive
Compression mode                         : Lossy
Bits/(Pixel*Frame)                       : 0.160
Stream size                              : 605 MiB (87%)
Writing library                          : XviD 64

Audio
ID                                       : 1
Format                                   : MPEG Audio
Format version                           : Version 1
Format profile                           : Layer 3
Codec ID                                 : 55
Codec ID/Hint                            : MP3
Duration                                 : 1h 31mn
Source duration                          : 1h 31mn
Bit rate mode                            : Constant
Bit rate                                 : 128 Kbps
Channel(s)                               : 2 channels
Sampling rate                            : 48.0 KHz
Compression mode                         : Lossy
Stream size                              : 84.2 MiB (12%)
Alignment                                : Split accross interleaves
Interleave, duration                     : 24 ms (0.60 video frame)


TÉLÉCHARGER "Titanic.La.veritable.histoire.2011.FRENCH.TVRip.XviD.MP3-Ninobello" 20x PLUS VITE AVEC USENET
Anonyme&Rapide – 14 jours gratuits

Ajouter un commentaire

j50bobo ↑ 30.24 GB ↓ 24.05 GB Ratio: 1,25

merci ,le Titanic reste dans l'histoire

mikka Qui veut la paix prépare la gu ↑ 1.92 TB ↓ 1.67 TB Ratio: 1,15

merci  

kiki24gjp ↑ 41.62 GB ↓ 26.09 GB Ratio: 1,59

Merci; bon documentaire; voir aussi la très bonne série "Titanic, Blood and steel"

allison32 ↑ 818.73 GB ↓ 521.71 GB Ratio: 1,56


merci, histoire déjà vu mais, j'aime mieux cet version

slimi ↑ 125.27 GB ↓ 154.62 GB Ratio: 0,81

seed svp!!merci! ca bloque!!svp!!

kermit0180 ↑ 186.38 GB ↓ 225.23 GB Ratio: 0,82

plus la realitee que le film merci

lolyes

ca fais toujours plaisir d'entendre parler du titanic

RISBO13 ↑ 2.1 TB ↓ 991.92 GB Ratio: 2,17

ah cool, merciiiiiiii

pascal9600 ↑ 1.07 TB ↓ 1.41 TB Ratio: 0,76

merci

benlard ↑ 1.66 TB ↓ 2.05 TB Ratio: 0,81

Merci l'ami ! je vais voir ce que ça donne.

Télécharger "Titanic.La.veritable.histoire.2011.FRENCH.TVRip.XviD.MP3-Ninobello" en illimité a une vitesse de 1000 kbps grïâce aux 14 Jours d'essai gratuit offerts par Usenet.nl!
 
Loading...