Vikings.S01E09.FRENCH.HDTV.x264-JMT URL Raccourcie

Télécharger "Vikings.S01E09.FRENCH.HDTV.x264-JMT" en illimité a une vitesse de 1000 kbps grïâce aux 14 Jours d'essai gratuit offerts par Usenet.nl!

Vikings



Saison 1  







La série se déroule comme une saga autour des exploits d'un groupe de Vikings mené par Ragnar Lodbrok,
l'un des plus populaires héros viking de tous les temps au destin semi-légendaire. Ragnar serait d'origine danoise,
suédoise ou encore norvégienne selon les sources. Il est supposé avoir unifié les clans vikings en un royaume aux
frontières indéterminées à la fin du VIIIe siècle. Mais il est surtout connu pour avoir été le promoteur des premiers
raids vikings en terres chrétiennes, saxonnes, franques ou celtiques.







Origine de la série :  Américaine, Britanique, Irlandaise
Crée par :  Michael Hirst
Acteurs réguliers :    Gabriel Byrne, Travis Fimmel, Jessalyn Gilsig, Gustaf Skarsgard, Clive Standen
Diffuser à partir du : 3 Mars 2013 aux USA
Genre :  Aventure, Drame, Historique
Durée : 52 Mins
Critiques spectateurs :  4  
Critiques presse :  3,2  









Episode 9 Final :  Renaissance    



A la demande du roi Horik, Ragnar s'embarque avec quelques hommes pour le Götaland, la plus méridionale des trois grandes régions de Suède. Il veut régler un litige de territoire avec le chef de la région, Jarl Borg. La réputation de Ragnar le précède, et Borg est intrigué : a-t-il trouvé en lui un nouvel allié, ou celui-ci est-il une marionnette du roi ?...










Qualité: HDTV
Format : MP4
Langue :  VFI
Sous-titre : Aucun
Taille du post : 266 Mo



Seedbox Powered !


_________________________



↓↓↓ Vikings.S01E09.FRENCH.HDTV.x264-JMT ↓↓↓
 

www.usenet.nl

Seeders 59 Leechers 0 Téléchargements 5706
 
Télécharger Dire merci! Signaler
Voir la liste des membres qui vous remercient
↑↑↑ Vikings.S01E09.FRENCH.HDTV.x264-JMT ↑↑↑

Informations

Nom Vikings.S01E09.FRENCH.HDTV.x264-JMT
Torrent Vikings.S01E09.FRENCH.HDTV.x264-JMT.torrent
Catégorie Série TV
Taille totale 266.97 MB
Info Hash 64012f7f865b40e02a69dca2554602fdee42ab64
Uploadé par hellspawn888
Uploadé le 2013-07-02 04:45:24 (+00:00)
Visites 7695
évaluation 4.9/5 (85 votes)

Liste des Fichiers

Path Size
Vikings.S01E09.FRENCH.HDTV.x264-JMT/Vikings.S01E09.FiNAL.FRENCH.HDTV.x264-JMT.mp4 266.97 MB
Vikings.S01E09.FRENCH.HDTV.x264-JMT/Vikings.S01E09.Final.FRENCH.HDTV.x264-JMT.nfo 3.37 KB

Voir le NFO

General
Complete name                    : /home/clk/torrents/Films-Serie/Vikings Saison 1 French/Vikings.S01E09.FRENCH.HDTV.x264-JMT/Vikings.S01E09.FiNAL.FRENCH.HDTV.x264-JMT.mp4
Format                           : MPEG-4
Format profile                   : Base Media
Codec ID                         : isom
File size                        : 267 MiB
Duration                         : 42mn 58s
Overall bit rate                 : 868 Kbps
Encoded date                     : UTC 2013-07-01 21:37:16
Tagged date                      : UTC 2013-07-01 21:37:16
Writing application              : My MP4Box GUI 0.6.0.6 

Video
ID                               : 1
Format                           : AVC
Format/Info                      : Advanced Video Codec
Format profile                   : [email protected]
Format settings, CABAC           : Yes
Format settings, ReFrames        : 5 frames
Codec ID                         : avc1
Codec ID/Info                    : Advanced Video Coding
Duration                         : 42mn 58s
Bit rate mode                    : Variable
Bit rate                         : 736 Kbps
Maximum bit rate                 : 3 843 Kbps
Width                            : 720 pixels
Height                           : 404 pixels
Display aspect ratio             : 16:9
Frame rate mode                  : Constant
Frame rate                       : 25.000 fps
Color space                      : YUV
Chroma subsampling               : 4:2:0
Bit depth                        : 8 bits
Scan type                        : Progressive
Bits/(Pixel*Frame)               : 0.101
Stream size                      : 226 MiB (85%)
Writing library                  : x264 core 133 r2334 a3ac64b
Encoding settings                : cabac=1 / ref=5 / deblock=1:0:0 / analyse=0x3:0x113 / me=umh / subme=8 / psy=1 / psy_rd=1.00:0.00 / mixed_ref=1 / me_range=16 / chroma_me=1 / trellis=1 / 8x8dct=1 / cqm=0 / deadzone=21,11 / fast_pskip=1 / chroma_qp_offset=-2 / threads=18 / lookahead_threads=3 / sliced_threads=0 / nr=0 / decimate=1 / interlaced=0 / bluray_compat=0 / constrained_intra=0 / bframes=3 / b_pyramid=2 / b_adapt=2 / b_bias=0 / direct=3 / weightb=1 / open_gop=0 / weightp=2 / keyint=250 / keyint_min=25 / scenecut=40 / intra_refresh=0 / rc_lookahead=50 / rc=crf / mbtree=1 / crf=19.0 / qcomp=0.60 / qpmin=0 / qpmax=69 / qpstep=4 / ip_ratio=1.40 / aq=1:1.00
Language                         : French
Encoded date                     : UTC 2013-07-01 21:37:16
Tagged date                      : UTC 2013-07-01 21:37:22
Matrix coefficients              : BT.709-5, BT.1361, IEC 61966-2-4 709, SMPTE RP177

Audio
ID                               : 2
Format                           : AAC
Format/Info                      : Advanced Audio Codec
Format profile                   : LC
Codec ID                         : 40
Duration                         : 42mn 58s
Bit rate mode                    : Variable
Bit rate                         : 128 Kbps
Maximum bit rate                 : 147 Kbps
Channel(s)                       : 2 channels
Channel positions                : Front: L R
Sampling rate                    : 48.0 KHz
Compression mode                 : Lossy
Stream size                      : 39.3 MiB (15%)
Language                         : French
Encoded date                     : UTC 2013-07-01 21:37:21
Tagged date                      : UTC 2013-07-01 21:37:22

TÉLÉCHARGER "Vikings.S01E09.FRENCH.HDTV.x264-JMT" 20x PLUS VITE AVEC USENET
Anonyme&Rapide – 14 jours gratuits

Ajouter un commentaire

1 - 20 | 21 - 36
benyabenya ↑ 94.85 GB ↓ 58.67 GB Ratio: 1,61

merci pour le partage
son et vidéo de très bonne qualité

raphy44 ↑ 396.21 GB ↓ 372.18 GB Ratio: 1,06

salut les 2 premiers épisodes en Français sont sortis

Bogozo ↑ 9.78 TB ↓ 534.25 GB Ratio: 18,74

ce que je me demande, c'est pourquoi c'est écart 345mo pour un et seulement 266mo pour celui ci

jesusmarchesur ↑ 30 GB ↓ 4.72 GB Ratio: 6,36

En attendant la 4ieme saison de Game Of Thrones je me suis dit que j'allais ecouter Vikings et je n'ai pas été déçu !

Je sais que la 1ere épisode de la saison 2 a été diffusé, quelqu'un sais quand on pourra telecharger cette épisode en français ?

dziadzia ↑ 502.68 GB ↓ 466.67 GB Ratio: 1,07

merci je me régale

selevakarsun ↑ 89.82 GB ↓ 72.07 GB Ratio: 1,24

merci, il me manquait cet épisode.

malibu89400 ↑ 4.83 TB ↓ 823.06 GB Ratio: 6,00

Merci beaucoup

cinemovie77 ↑ 1.03 TB ↓ 467.86 GB Ratio: 2,24

Merci encore une série qui promet... Merci pour le taf

sinepsorg2 ↑ 99.71 GB ↓ 106.27 GB Ratio: 0,93

cherche mieu sont toute la

Kerj Manger donc des crêpes Gast !! ↑ 5.62 TB ↓ 1.05 TB Ratio: 5,35

Salut!! pas d'episode 08??ou peut t'ont le trouver?? MERCI

arthurarthur ↑ 5.11 TB ↓ 1.39 TB Ratio: 3,68

bonjour, ou trouver  vikings s01E08 FRENCH ?  MERCI ENCORE POUR TOUT

matadorparis ↑ 32.21 GB ↓ 19.85 GB Ratio: 1,62

Gé-nial !!

cerbere32 ↑ 3.52 TB ↓ 1.71 TB Ratio: 2,06

bonjour, quelqu un sait s'il seront dispo en format tv avi comme les 7 premiers?
merci

lolivier ↑ 3.59 TB ↓ 2.51 TB Ratio: 1,43

Merci, comme d'hab c du bon boulot, mais serait-il d'avoir l'ep08 dans ce format. car comme vous savez si on charge la saison compléte en seltionnant seulement 1 episode ca pénalise car le torrent reste actif et du coup reste seulement a pouvoir etre chargé.
ou alors c'est peut etre une operation marketing qui oblige a charger la saison compléte§
Allé, soyez simpa avec nous!!

commando84 ↑ 516.14 GB ↓ 540.64 GB Ratio: 0,95

paticap44 ↑ 1.57 TB ↓ 1.73 TB Ratio: 0,90

cool merci beaucoup.

atonelavey ↑ 74.24 GB ↓ 58.03 GB Ratio: 1,27

Nickel merci beaucoup, image et son super, zéros problème, du beau travail! top

amiral99 ↑ 1.85 TB ↓ 2.47 TB Ratio: 0,74

exellent travail, bravo;  très bonne serie, de l'aventure, de belles prise de vue, un régal, à regarder sans hésiter !!  top

rioblack ↑ 689.81 GB ↓ 518.84 GB Ratio: 1,32

merci pour vos post excellent travail de loin les meilleurs pour cette série géniale...

marcliver ↑ 1.19 TB ↓ 309.82 GB Ratio: 3,91

merci très bon boulot vivement la saison 2.............

1 - 20 | 21 - 36
Télécharger "Vikings.S01E09.FRENCH.HDTV.x264-JMT" en illimité a une vitesse de 1000 kbps grïâce aux 14 Jours d'essai gratuit offerts par Usenet.nl!
 
Loading...