[VO] Revolution.2012.S01E14.720p.HDTV.X264-DIMENSION URL Raccourcie

Télécharger "[VO] Revolution.2012.S01E14.720p.HDTV.X264-DIMENSION" en illimité a une vitesse de 1000 kbps grïâce aux 14 Jours d'essai gratuit offerts par Usenet.nl!

(¯`·._.·[VO] Revolution.2012.S01E14.720p.HDTV.X264-DIMENSION]·._.·´¯







Titre original :Revolution
Origine de la serie : Américaine
Statut : En production
Réalisateur : Eric Kripke
Acteurs : Billy Burke, Tracy Spiridakos, Giancarlo Esposito
Genre : Aventure
Note : 3.4






Le monde bascule dans une ère sombre lorsque l'électricité cesse soudainement de fonctionner.
Sans technologie moderne, les hôpitaux, les transports et les moyens de communication ne sont plus opérationnels.
La population doit réapprendre à vivre...15 ans plus tard, la vie a repris son cours.
Lentement. Sereinement ? Pas vraiment. Aux abords des communautés agricoles qui se sont constituées, le danger rôde.
Et la vie d'une jeune femme est bouleversée lorsque la milice locale débarque et tue son père, qui semble être mystérieusement lié au blackout.
Ces révélations l'amènent à se mettre en quête de réponses sur le passé, dans l'espoir d'un futur meilleur.




Hébergeur : T411 /Fibre
Qualité : HDTV
Format : MKV
Langue :
Sous-titre : AUCUN

Bitrate VIDEO : 3466 Kbps 720p
Bitrate AUDIO : 384 Kbps AC3 5.1

Taille du Fichier : 1130 Mo




SERIE EN VO. TELECHARGER LES SOUS TITRES ..

http://www.addic7ed.com/serie/Revolution_%282012%29/1/14/The_night_the_lights_went_out_in_Georgia

NE PAS OUBLIER QUE LE NOM DU .MKV ET DU .SRT DOIVENT ETRE IDENTIQUE, ET DANS LE MÊME DOSSIER







↓↓↓ [VO] Revolution.2012.S01E14.720p.HDTV.X264-DIMENSION ↓↓↓
 

www.usenet.nl

Seeders 2 Leechers 0 Téléchargements 257
 
Télécharger Dire merci! Signaler
Voir la liste des membres qui vous remercient
↑↑↑ [VO] Revolution.2012.S01E14.720p.HDTV.X264-DIMENSION ↑↑↑

Informations

Nom [VO] Revolution.2012.S01E14.720p.HDTV.X264-DIMENSION
Torrent [VO] Revolution.2012.S01E14.720p.HDTV.X264-DIMENSION.mkv.torrent
Catégorie Série TV
Taille totale 1.14 GB
Info Hash 932148f7212249df84b07fa7bb4de15412d68883
Uploadé par Anonymous
Uploadé le 2013-04-23 08:06:55 (+00:00)
Visites 552
évaluation 5/5 (5 votes)

Liste des Fichiers

Path Size
[VO] Revolution.2012.S01E14.720p.HDTV.X264-DIMENSION.mkv 1.14 GB

Voir le NFO

Complete name                            : [VO] Revolution.2012.S01E14.720p.HDTV.X264-DIMENSION.mkv
Format                                   : Matroska
Format version                           : Version 2
File size                                : 1.14 GiB
Duration                                 : 41mn 29s
Overall bit rate                         : 3 928 Kbps
Encoded date                             : UTC 2013-04-22 18:58:03
Writing application                      : mkvmerge v3.1.0 ('Happy up here') built on Jan 19 2010 12:09:24
Writing library                          : libebml v0.7.9 + libmatroska v0.8.1

Video
ID                                       : 1
Format                                   : AVC
Format/Info                              : Advanced Video Codec
Format profile                           : High@L4.1
Format settings, CABAC                   : Yes
Format settings, ReFrames                : 8 frames
Codec ID                                 : V_MPEG4/ISO/AVC
Duration                                 : 41mn 29s
Bit rate                                 : 3 466 Kbps
Width                                    : 1 280 pixels
Height                                   : 720 pixels
Display aspect ratio                     : 16:9
Frame rate mode                          : Constant
Frame rate                               : 23.976 fps
Color space                              : YUV
Chroma subsampling                       : 4:2:0
Bit depth                                : 8 bits
Scan type                                : Progressive
Bits/(Pixel*Frame)                       : 0.157
Stream size                              : 1.00 GiB (88%)
Writing library                          : x264 core 130 r2273 b3065e6
Encoding settings                        : cabac=1 / ref=8 / deblock=1:-2:-2 / analyse=0x3:0x113 / me=umh / subme=9 / psy=1 / psy_rd=1.00:0.00 / mixed_ref=1 / me_range=24 / chroma_me=1 / trellis=1 / 8x8dct=1 / cqm=0 / deadzone=21,11 / fast_pskip=0 / chroma_qp_offset=-2 / threads=18 / lookahead_threads=2 / sliced_threads=0 / nr=0 / decimate=1 / interlaced=0 / bluray_compat=0 / constrained_intra=0 / bframes=5 / b_pyramid=2 / b_adapt=2 / b_bias=0 / direct=3 / weightb=1 / open_gop=0 / weightp=2 / keyint=250 / keyint_min=23 / scenecut=40 / intra_refresh=0 / rc_lookahead=50 / rc=crf / mbtree=1 / crf=18.0 / qcomp=0.60 / qpmin=0 / qpmax=69 / qpstep=4 / ip_ratio=1.40 / aq=1:1.00
Language                                 : English
Default                                  : No
Forced                                   : No

Audio
ID                                       : 2
Format                                   : AC-3
Format/Info                              : Audio Coding 3
Mode extension                           : CM (complete main)
Format settings, Endianness              : Big
Codec ID                                 : A_AC3
Duration                                 : 41mn 29s
Bit rate mode                            : Constant
Bit rate                                 : 384 Kbps
Channel(s)                               : 6 channels
Channel positions                        : Front: L C R, Side: L R, LFE
Sampling rate                            : 48.0 KHz
Bit depth                                : 16 bits
Compression mode                         : Lossy
Delay relative to video                  : 100ms
Stream size                              : 114 MiB (10%)
Default                                  : Yes
Forced                                   : No

TÉLÉCHARGER "[VO] Revolution.2012.S01E14.720p.HDTV.X264-DIMENSION" 20x PLUS VITE AVEC USENET
Anonyme&Rapide – 14 jours gratuits

Ajouter un commentaire

Télécharger "[VO] Revolution.2012.S01E14.720p.HDTV.X264-DIMENSION" en illimité a une vitesse de 1000 kbps grïâce aux 14 Jours d'essai gratuit offerts par Usenet.nl!
 
Loading...